osu file format v14

[General]
AudioFilename: tiger.mp3
AudioLeadIn: 1500
PreviewTime: 62880
Countdown: 0
SampleSet: Soft
StackLeniency: 0.7
Mode: 0
LetterboxInBreaks: 1
WidescreenStoryboard: 1

[Editor]
Bookmarks: 59016
DistanceSpacing: 0.6
BeatDivisor: 4
GridSize: 4
TimelineZoom: 2.1

[Metadata]
Title:Horang Pungryuga
TitleUnicode:호랑풍류가
Artist:Narae
ArtistUnicode:나래
Creator:Dark Fang
Version:Insane
Source:나와 호랑이님
Tags:상록수 scanter captin1 HelloSCV K_i_A_i KiAi
BeatmapID:474591
BeatmapSetID:200187

[Difficulty]
HPDrainRate:7
CircleSize:4
OverallDifficulty:8
ApproachRate:9
SliderMultiplier:1.92
SliderTickRate:2

[Events]
//Background and Video events
0,0,"2012_5_2_1336462055.jpg",0,0
Video,0,"PV.avi",0,0
//Break Periods
//Storyboard Layer 0 (Background)
//Storyboard Layer 1 (Fail)
//Storyboard Layer 2 (Pass)
//Storyboard Layer 3 (Foreground)
//Storyboard Sound Samples

[TimingPoints]
255,375,4,2,2,70,1,0
3255,-100,4,2,2,80,0,1
14036,-100,4,2,2,5,0,1
14130,-100,4,2,2,80,0,1
14411,-100,4,2,2,5,0,1
14505,-100,4,2,2,80,0,1
15255,-100,4,2,2,70,0,0
26505,-100,4,2,2,61,0,0
27255,-100,4,2,2,70,0,0
39255,-100,4,2,2,60,0,0
48255,-100,4,2,2,70,0,0
49755,-100,4,2,2,82,0,0
50505,-100,4,2,2,90,0,0
51255,-133.333333333333,4,2,2,57,0,0
57255,-100,4,2,2,60,0,0
61755,-100,4,2,2,70,0,0
62036,-100,4,2,2,5,0,0
62130,-100,4,2,2,70,0,0
62411,-100,4,2,2,5,0,0
62505,-100,4,2,2,70,0,0
63255,-100,4,2,2,80,0,1
74036,-100,4,2,2,5,0,1
74130,-100,4,2,2,80,0,1
74411,-100,4,2,2,5,0,1
74505,-100,4,2,2,80,0,1
86036,-100,4,2,2,5,0,1
86130,-100,4,2,2,80,0,1
86411,-100,4,2,2,5,0,1
86505,-100,4,2,2,80,0,1
89036,-100,4,2,2,5,0,1
89130,-100,4,2,2,80,0,1
89411,-100,4,2,2,5,0,1
89505,-100,4,2,2,80,0,1
92036,-100,4,2,2,5,0,1
92130,-100,4,2,2,80,0,1
92411,-100,4,2,2,5,0,1
92505,-100,4,2,2,80,0,1
92786,-100,4,2,2,5,0,1
92880,-100,4,2,2,80,0,1
93161,-100,4,2,2,5,0,1
93255,-100,4,2,2,80,0,1
93348,-100,4,2,2,20,0,1
96255,-100,4,2,2,80,0,0

[Colours]
Combo1 : 128,128,192
Combo2 : 128,255,255
Combo3 : 128,255,128
Combo4 : 255,0,128

[HitObjects]
176,188,255,5,0,0:0:0:0:
176,188,348,1,8,0:0:0:0:
348,152,536,1,0,0:0:0:0:
348,151,630,2,0,B|377:133|387:98|377:69,1,96,8|0,0:0|0:0,0:0:0:0:
150,38,1005,5,0,0:0:0:0:
150,38,1098,1,8,0:0:0:0:
98,198,1286,1,0,0:0:0:0:
98,198,1380,2,0,B|73:222|66:255|74:286,1,96,8|0,0:0|0:0,0:0:0:0:
276,356,1755,5,0,0:0:0:0:
276,356,1848,2,0,B|310:360|340:341|355:314,1,96,8|0,0:0|0:0,0:0:0:0:
400,248,2130,2,0,L|339:224,1,48,8|0,0:0|0:0,0:0:0:0:
332,124,2317,2,0,L|392:147,1,48,8|0,0:0|0:0,0:0:0:0:
284,204,2505,6,0,L|177:161,1,96,0|0,0:0|0:0,0:0:0:0:
144,20,2880,2,0,L|251:63,1,96,2|0,0:0|0:0,0:0:0:0:
360,176,3255,6,0,B|376:225|344:276|294:284,1,144,4|0,0:0|0:0,0:0:0:0:
263,279,3630,2,0,B|231:268|198:276|174:297,1,96,8|0,0:0|0:0,0:0:0:0:
32,152,4005,2,0,B|38:185|62:211|92:220,1,96,,,0:0:0:0:
224,224,4380,2,0,B|257:217|282:193|292:163,1,96,0|8,0:0|0:0,0:0:0:0:
166,80,4755,2,0,L|160:224,1,144,,,0:0:0:0:
160,252,5130,1,8,0:0:0:0:
336,312,5317,1,0,0:0:0:0:
239,311,5505,6,0,B|236:277|255:247|283:233,1,96,,,0:0:0:0:
429,118,5880,2,0,B|395:114|364:134|352:163,1,96,0|8,0:0|0:0,0:0:0:0:
168,216,6255,2,0,B|208:217|242:192|255:155|248:121,1,144,,,0:0:0:0:
232,96,6630,2,0,B|214:63|224:23|251:0,1,96,8|0,0:0|0:0,0:0:0:0:
384,32,7005,1,0,0:0:0:0:
420,216,7192,1,0,0:0:0:0:
429,118,7380,1,0,0:0:0:0:
340,268,7567,1,8,0:0:0:0:
429,118,7755,6,0,B|383:142|328:126|301:84,1,144,,,0:0:0:0:
287,59,8130,2,0,B|261:38|226:34|197:45,1,96,8|0,0:0|0:0,0:0:0:0:
56,160,8505,5,0,0:0:0:0:
96,340,8692,1,0,0:0:0:0:
236,144,8880,1,0,0:0:0:0:
180,319,9067,1,8,0:0:0:0:
395,224,9255,6,0,B|353:252|297:240|268:201,1,144,,,0:0:0:0:
255,171,9630,2,0,B|258:137|241:106|214:89,1,96,8|0,0:0|0:0,0:0:0:0:
160,168,10005,1,0,0:0:0:0:
340,156,10192,1,0,0:0:0:0:
120,80,10380,2,0,B|88:93|68:121|65:153,1,96,0|8,0:0|0:0,0:0:0:0:
180,319,10755,6,0,L|352:296,1,144,0|0,0:0|0:0,0:0:0:0:
352,296,11130,2,0,B|384:308|402:339|400:370,1,96,8|0,0:0|0:0,0:0:0:0:
280,230,11505,2,0,L|340:156,1,96,,,0:0:0:0:
510,77,11880,2,0,L|416:96,1,96,0|8,0:0|0:0,0:0:0:0:
319,96,12255,6,0,B|270:109|220:86|197:44,1,144,,,0:0:0:0:
184,20,12630,2,0,B|198:51|194:85|176:111,1,96,8|0,0:0|0:0,0:0:0:0:
64,312,13005,2,0,B|49:281|53:246|71:220,1,96,8|0,0:0|0:0,0:0:0:0:
248,136,13380,1,0,0:0:0:0:
140,188,13567,1,8,0:0:0:0:
280,230,13755,6,0,B|311:255|353:257|387:236|403:206,1,144,4|0,0:0|0:0,0:0:0:0:
248,136,14130,2,0,B|210:149|187:185|188:225|207:254,1,144,4|0,0:0|0:0,0:0:0:0:
345,155,14505,2,0,B|352:115|332:77|297:58|262:60,1,144,4|0,0:0|0:0,0:0:0:0:
261,60,14880,2,0,L|165:63,1,96,8|0,0:0|0:0,0:0:0:0:
44,200,15255,5,4,0:0:0:0:
44,200,15348,2,0,L|139:196,1,96,8|0,0:0|0:0,0:0:0:0:
208,160,15630,2,0,B|235:134|244:98|236:64,1,96,8|0,0:0|0:0,0:0:0:0:
139,196,16005,5,0,0:0:0:0:
139,196,16098,2,0,B|154:228|187:245|219:240,1,96,10|0,0:0|0:0,0:0:0:0:
280,196,16380,2,0,L|374:178,1,96,8|0,0:0|0:0,0:0:0:0:
444,208,16661,1,8,0:0:0:0:
492,268,16755,2,0,B|508:300|500:336|476:360,1,96,0|2,0:0|0:0,0:0:0:0:
374,179,17130,6,0,B|358:147|366:111|390:87,1,96,8|0,0:0|0:0,0:0:0:0:
452,48,17411,1,8,0:0:0:0:
288,104,17598,1,2,0:0:0:0:
288,104,17692,2,0,B|259:122|223:119|197:101,1,96,8|2,0:0|0:0,0:0:0:0:
64,176,18067,2,0,L|40:232,1,48,8|0,0:0|0:0,0:0:0:0:
88,284,18255,5,0,0:0:0:0:
88,284,18348,2,0,B|110:310|145:318|174:307,1,96,8|0,0:0|0:0,0:0:0:0:
248,276,18630,2,0,B|276:256|287:222|280:192,1,96,8|0,0:0|0:0,0:0:0:0:
136,44,19005,5,0,0:0:0:0:
136,44,19098,2,0,L|232:48,1,96,10|0,0:0|0:0,0:0:0:0:
288,104,19380,2,0,L|384:108,1,96,8|0,0:0|0:0,0:0:0:0:
440,164,19661,1,8,0:0:0:0:
495,220,19755,2,0,B|472:245|437:251|409:236,1,96,0|2,0:0|0:0,0:0:0:0:
200,119,20130,6,0,B|223:93|259:88|287:104,1,96,8|0,0:0|0:0,0:0:0:0:
344,156,20411,1,8,0:0:0:0:
112,152,20598,1,2,0:0:0:0:
112,152,20692,2,0,B|79:140|44:154|28:182,1,96,8|2,0:0|0:0,0:0:0:0:
128,300,21067,2,0,L|180:316,1,48,8|0,0:0|0:0,0:0:0:0:
248,288,21255,5,0,0:0:0:0:
248,287,21348,2,0,B|273:264|309:262|335:280,1,96,8|0,0:0|0:0,0:0:0:0:
412,299,21630,2,0,B|446:297|473:275|483:246,1,96,8|0,0:0|0:0,0:0:0:0:
448,60,22005,5,0,0:0:0:0:
448,60,22098,2,0,L|404:152,1,96,10|0,0:0|0:0,0:0:0:0:
332,168,22380,2,0,L|252:113,1,96,8|0,0:0|0:0,0:0:0:0:
188,72,22661,1,8,0:0:0:0:
112,88,22755,2,0,B|90:121|92:161|112:191,1,96,0|2,0:0|0:0,0:0:0:0:
324,259,23130,6,0,B|343:231|345:197|332:168,1,96,8|0,0:0|0:0,0:0:0:0:
288,104,23411,1,8,0:0:0:0:
232,256,23598,1,2,0:0:0:0:
231,256,23692,2,0,B|227:290|247:320|276:332,1,96,8|2,0:0|0:0,0:0:0:0:
424,280,24067,2,0,L|440:224,1,48,8|0,0:0|0:0,0:0:0:0:
428,156,24255,5,0,0:0:0:0:
428,156,24348,2,0,B|408:112|408:112|421:94|424:68,1,96,8|0,0:0|0:0,0:0:0:0:
348,64,24630,2,0,B|316:81|279:73|256:49,1,96,8|0,0:0|0:0,0:0:0:0:
192,16,24911,1,8,0:0:0:0:
116,32,25005,2,0,L|80:132,1,96,0|8,0:0|0:0,0:0:0:0:
180,352,25380,6,0,L|216:252,1,96,8|0,0:0|0:0,0:0:0:0:
188,188,25661,1,8,0:0:0:0:
111,196,25755,2,0,B|79:206|45:196|24:172,1,96,0|8,0:0|0:0,0:0:0:0:
264,180,26130,2,0,L|368:196,1,96,8|0,0:0|0:0,0:0:0:0:
420,148,26411,1,0,0:0:0:0:
484,104,26505,6,0,L|476:52,1,48,8|8,0:0|0:0,0:0:0:0:
360,196,26786,2,0,L|368:248,1,48,8|8,0:0|0:0,0:0:0:0:
484,32,27067,1,8,0:0:0:0:
360,268,27255,5,4,0:0:0:0:
359,268,27348,2,0,B|332:289|297:290|269:276,1,96,8|0,0:0|0:0,0:0:0:0:
196,244,27630,2,0,L|100:255,1,96,8|0,0:0|0:0,0:0:0:0:
260,200,28005,5,0,0:0:0:0:
260,200,28098,2,0,L|308:112,1,96,10|0,0:0|0:0,0:0:0:0:
271,44,28380,2,0,B|242:62|208:62|180:48,1,96,8|0,0:0|0:0,0:0:0:0:
104,56,28661,1,8,0:0:0:0:
64,120,28755,2,0,B|62:154|42:182|14:197,1,96,0|2,0:0|0:0,0:0:0:0:
196,244,29130,6,0,B|213:274|248:285|277:274,1,96,8|0,0:0|0:0,0:0:0:0:
336,220,29411,1,8,0:0:0:0:
364,63,29598,1,2,0:0:0:0:
364,63,29692,2,0,L|271:44,1,96,8|2,0:0|0:0,0:0:0:0:
104,56,30067,2,0,L|92:124,1,48,8|0,0:0|0:0,0:0:0:0:
120,176,30255,5,0,0:0:0:0:
120,176,30348,2,0,B|128:216|115:254|88:280,1,96,8|0,0:0|0:0,0:0:0:0:
140,331,30630,2,0,B|173:324|206:329|234:343,1,96,8|0,0:0|0:0,0:0:0:0:
336,220,31005,5,0,0:0:0:0:
336,220,31098,2,0,L|288:136,1,96,10|0,0:0|0:0,0:0:0:0:
308,60,31380,2,0,L|396:20,1,96,8|0,0:0|0:0,0:0:0:0:
448,76,31661,1,8,0:0:0:0:
500,132,31755,2,0,B|518:161|517:197|500:224,1,96,0|2,0:0|0:0,0:0:0:0:
336,311,32130,6,0,B|318:282|319:247|336:220,1,96,8|0,0:0|0:0,0:0:0:0:
384,160,32411,1,8,0:0:0:0:
248,228,32598,1,2,0:0:0:0:
247,228,32692,2,0,B|215:239|181:234|155:217,1,96,8|2,0:0|0:0,0:0:0:0:
84,32,33067,2,0,L|118:65,1,48,8|0,0:0|0:0,0:0:0:0:
180,112,33255,5,0,0:0:0:0:
180,112,33348,2,0,L|266:70,1,96,8|0,0:0|0:0,0:0:0:0:
344,76,33630,2,0,L|421:132,1,96,8|0,0:0|0:0,0:0:0:0:
512,260,34005,5,0,0:0:0:0:
512,261,34098,2,0,B|486:283|450:285|424:268,1,96,10|0,0:0|0:0,0:0:0:0:
344,276,34380,2,0,B|326:305|293:318|263:313,1,96,8|0,0:0|0:0,0:0:0:0:
188,288,34661,1,8,0:0:0:0:
112,284,34755,2,0,B|82:300|67:333|71:364,1,96,0|2,0:0|0:0,0:0:0:0:
252,236,35130,6,0,B|268:206|264:171|246:145,1,96,8|0,0:0|0:0,0:0:0:0:
180,112,35411,1,8,0:0:0:0:
261,312,35598,1,2,0:0:0:0:
261,312,35692,2,0,B|295:319|327:303|344:277,1,96,8|2,0:0|0:0,0:0:0:0:
420,140,36067,2,0,L|396:80,1,48,8|0,0:0|0:0,0:0:0:0:
340,48,36255,5,0,0:0:0:0:
340,48,36348,2,0,B|313:69|277:69|251:51,1,96,8|0,0:0|0:0,0:0:0:0:
172,36,36630,2,0,B|144:17|108:20|83:39,1,96,8|0,0:0|0:0,0:0:0:0:
44,188,37005,5,0,0:0:0:0:
44,188,37098,2,0,L|136:252,1,96,8|0,0:0|0:0,0:0:0:0:
200,232,37380,2,0,L|292:296,1,96,8|0,0:0|0:0,0:0:0:0:
356,276,37661,1,8,0:0:0:0:
433,265,37755,5,8,0:0:0:0:
420,140,37942,1,8,0:0:0:0:
316,72,38130,1,8,0:0:0:0:
192,60,38317,1,8,0:0:0:0:
84,120,38505,5,0,0:0:0:0:
84,120,38598,2,0,B|100:156|140:172|175:160,1,96,8|0,0:0|0:0,0:0:0:0:
240,180,38880,2,0,B|268:200|304:198|328:178,1,96,8|0,0:0|0:0,0:0:0:0:
408,48,39255,5,4,0:0:0:0:
420,140,39442,1,0,0:0:0:0:
428,156,39536,1,0,0:0:0:0:
436,172,39630,1,0,0:0:0:0:
312,116,39817,5,0,0:0:0:0:
320,132,39911,1,0,0:0:0:0:
328,148,40005,1,0,0:0:0:0:
204,92,40192,5,0,0:0:0:0:
212,108,40286,1,0,0:0:0:0:
220,124,40380,1,0,0:0:0:0:
96,68,40567,5,0,0:0:0:0:
104,84,40661,1,0,0:0:0:0:
112,100,40755,2,0,L|153:186,1,96,,,0:0:0:0:
144,204,41036,1,0,0:0:0:0:
136,220,41130,1,0,0:0:0:0:
268,176,41317,5,0,0:0:0:0:
258,193,41411,1,0,0:0:0:0:
250,209,41505,1,0,0:0:0:0:
382,165,41692,5,0,0:0:0:0:
372,182,41786,1,0,0:0:0:0:
364,198,41880,1,0,0:0:0:0:
364,216,41973,1,0,0:0:0:0:
372,232,42067,1,0,0:0:0:0:
388,240,42161,1,0,0:0:0:0:
408,240,42255,6,0,L|436:136,1,96,,,0:0:0:0:
424,128,42536,1,0,0:0:0:0:
416,112,42630,1,0,0:0:0:0:
304,168,42817,5,0,0:0:0:0:
295,148,42911,1,0,0:0:0:0:
287,132,43005,1,0,0:0:0:0:
176,189,43192,5,0,0:0:0:0:
167,169,43286,1,0,0:0:0:0:
159,153,43380,1,0,0:0:0:0:
152,136,43473,1,0,0:0:0:0:
144,152,43567,1,0,0:0:0:0:
136,168,43661,1,0,0:0:0:0:
127,184,43755,6,0,B|115:231|115:231|146:266,1,96,,,0:0:0:0:
164,268,44036,1,0,0:0:0:0:
184,272,44130,2,0,L|300:312,1,96,,,0:0:0:0:
288,316,44411,1,0,0:0:0:0:
300,328,44505,5,0,0:0:0:0:
420,292,44692,1,0,0:0:0:0:
464,176,44880,1,0,0:0:0:0:
416,64,45067,1,0,0:0:0:0:
300,108,45255,5,4,0:0:0:0:
180,80,45442,1,0,0:0:0:0:
168,64,45536,1,0,0:0:0:0:
156,48,45630,1,0,0:0:0:0:
121,201,45817,5,0,0:0:0:0:
101,204,45911,1,0,0:0:0:0:
81,206,46005,1,0,0:0:0:0:
197,313,46192,5,0,0:0:0:0:
189,332,46286,1,0,0:0:0:0:
181,350,46380,1,0,0:0:0:0:
332,304,46567,5,0,0:0:0:0:
343,320,46661,1,0,0:0:0:0:
356,336,46755,1,0,0:0:0:0:
430,177,46942,5,0,0:0:0:0:
410,180,47036,1,0,0:0:0:0:
390,182,47130,1,0,0:0:0:0:
255,103,47317,5,0,0:0:0:0:
276,100,47411,1,0,0:0:0:0:
295,98,47505,1,0,0:0:0:0:
232,224,47692,5,0,0:0:0:0:
211,227,47786,1,0,0:0:0:0:
192,224,47880,1,0,0:0:0:0:
176,216,47973,1,0,0:0:0:0:
164,200,48067,1,0,0:0:0:0:
164,180,48161,1,0,0:0:0:0:
176,164,48255,6,0,L|216:264,1,96,,,0:0:0:0:
208,272,48536,1,0,0:0:0:0:
200,292,48630,1,0,0:0:0:0:
200,312,48723,1,0,0:0:0:0:
208,332,48817,1,0,0:0:0:0:
220,344,48911,1,0,0:0:0:0:
236,352,49005,1,0,0:0:0:0:
256,352,49098,1,0,0:0:0:0:
276,344,49192,1,0,0:0:0:0:
288,332,49286,1,0,0:0:0:0:
296,316,49380,5,0,0:0:0:0:
316,296,49473,1,0,0:0:0:0:
344,292,49567,1,0,0:0:0:0:
372,300,49661,1,0,0:0:0:0:
392,319,49755,6,0,B|406:328|423:330|438:325,1,48,0|0,0:0|0:0,0:0:0:0:
512,188,49942,2,0,B|497:179|480:177|465:182,1,48,,,0:0:0:0:
292,216,50130,2,0,B|307:224|323:225|338:221,1,48,,,0:0:0:0:
411,84,50317,2,0,B|396:75|379:73|364:78,1,48,,,0:0:0:0:
191,112,50505,5,2,0:3:0:0:
160,136,51255,6,0,L|124:280,2,144.000005493164,2|0|0,0:0|0:0|0:0,0:0:0:0:
200,76,52380,6,0,B|208:52|206:27|198:6,1,72.0000027465821,,,0:0:0:0:
264,172,52755,2,0,B|255:196|256:221|265:242,1,72.0000027465821,,,0:0:0:0:
424,124,53130,1,0,0:0:0:0:
340,100,53317,1,0,0:0:0:0:
268,152,53505,2,0,B|216:179|153:156|128:105,2,144.000005493164,0|0|0,0:0|0:0|0:0,0:0:0:0:
431,208,54630,6,0,B|428:259|391:299|345:309,1,144.000005493164,,,0:0:0:0:
260,284,55192,1,0,0:0:0:0:
192,336,55380,2,0,L|49:312,2,144.000005493164,0|0|0,0:0|0:0|0:0,0:0:0:0:
376,284,56505,2,0,L|409:220,1,72.0000027465821,,,0:0:0:0:
368,64,56880,2,0,L|334:127,1,72.0000027465821,,,0:0:0:0:
191,112,57255,6,0,B|147:144|88:142|46:109|28:65,2,192,4|0|0,0:0|0:0|0:0,0:0:0:0:
204,104,58380,2,0,B|237:85|275:89|304:108,1,96,0|0,0:0|0:0,0:0:0:0:
360,172,58755,2,0,B|379:205|375:243|356:272,1,96,0|0,0:0|0:0,0:0:0:0:
280,316,59130,1,0,0:0:0:0:
108,228,59317,1,0,0:0:0:0:
268,220,59505,5,0,0:0:0:0:
192,276,59692,1,0,0:0:0:0:
108,228,59880,1,0,0:0:0:0:
132,136,60067,1,0,0:0:0:0:
228,136,60255,6,0,B|288:144|325:97|325:97|420:112,1,192,,,0:0:0:0:
480,48,60817,1,0,0:0:0:0:
484,144,61005,2,0,B|497:176|489:210|467:233,1,96,,,0:0:0:0:
376,384,61380,2,0,B|357:356|358:320|376:294,1,96,,,0:0:0:0:
403,200,61755,6,0,B|377:244|323:258|279:238,1,144,4|0,0:0|0:0,0:0:0:0:
188,59,62130,2,0,B|240:59|281:99|285:148,1,144,4|0,0:0|0:0,0:0:0:0:
175,316,62505,2,0,B|149:272|163:216|203:188,1,144,4|0,0:0|0:0,0:0:0:0:
203,188,62880,2,0,B|237:185|267:169|287:146,1,96,,,0:0:0:0:
128,12,63255,6,0,L|100:172,1,144,4|0,0:0|0:0,0:0:0:0:
112,180,63630,2,0,B|116:214|97:244|70:259,1,96,8|0,0:0|0:0,0:0:0:0:
20,176,64005,1,0,0:0:0:0:
186,130,64192,1,8,0:0:0:0:
183,315,64380,2,0,L|212:224,1,96,0|8,0:0|0:0,0:0:0:0:
373,134,64755,6,0,L|280:156,1,96,0|0,0:0|0:0,0:0:0:0:
112,180,65130,1,8,0:0:0:0:
194,41,65317,1,0,0:0:0:0:
284,176,65505,2,0,B|304:203|305:238|289:266,1,96,0|8,0:0|0:0,0:0:0:0:
52,340,65880,2,0,B|31:313|30:277|46:250,1,96,0|8,0:0|0:0,0:0:0:0:
112,180,66255,6,0,B|151:190|191:171|210:136|208:101,1,144,,,0:0:0:0:
211,72,66630,2,0,L|112:56,1,96,8|0,0:0|0:0,0:0:0:0:
320,36,67005,2,0,B|351:23|385:31|408:53,1,96,0|8,0:0|0:0,0:0:0:0:
408,242,67380,2,0,L|392:148,1,96,0|8,0:0|0:0,0:0:0:0:
368,128,67661,1,0,0:0:0:0:
339,132,67755,6,0,B|311:151|277:151|249:137,1,96,,,0:0:0:0:
44,64,68130,2,0,B|71:44|106:43|134:58,1,96,8|0,0:0|0:0,0:0:0:0:
260,228,68505,1,8,0:0:0:0:
204,304,68692,1,8,0:0:0:0:
108,312,68880,1,0,0:0:0:0:
36,248,69067,1,8,0:0:0:0:
112,188,69255,6,0,B|159:168|181:116|165:70,1,144,0|0,0:0|0:0,0:0:0:0:
143,48,69630,2,0,B|111:60|77:52|54:30,1,96,8|0,0:0|0:0,0:0:0:0:
232,7,70005,2,0,B|265:-3|298:6|322:26,1,96,0|8,0:0|0:0,0:0:0:0:
328,240,70380,2,8,B|302:217|290:185|292:154,1,96,0|8,0:0|0:0,0:0:0:0:
512,96,70755,6,0,L|418:115,1,96,0|0,0:0|0:0,0:0:0:0:
264,88,71130,1,8,0:0:0:0:
368,4,71317,1,0,0:0:0:0:
424,128,71505,2,0,B|441:157|444:191|435:220,1,96,0|8,0:0|0:0,0:0:0:0:
276,372,71880,2,0,B|258:343|255:309|264:279,1,96,0|8,0:0|0:0,0:0:0:0:
264,88,72255,6,0,B|276:126|258:166|223:184|188:180,1,144,,,0:0:0:0:
159,167,72630,2,0,B|131:149|97:147|68:160,1,96,8|0,0:0|0:0,0:0:0:0:
216,280,73005,2,0,B|244:298|278:300|307:287,1,96,8|8,0:0|0:0,0:0:0:0:
496,212,73380,2,0,B|476:239|444:252|413:251,1,96,0|8,0:0|0:0,0:0:0:0:
335,191,73755,6,0,B|330:140|289:103|242:98,1,144,4|0,0:0|0:0,0:0:0:0:
216,261,74130,2,0,B|263:281|315:265|343:227,1,144,4|0,0:0|0:0,0:0:0:0:
215,122,74505,2,0,B|175:153|163:206|181:250,1,144,4|0,0:0|0:0,0:0:0:0:
204,272,74880,2,0,L|287:325,1,96,,,0:0:0:0:
424,215,75255,6,0,B|440:167|421:116|383:89,1,144,4|0,0:0|0:0,0:0:0:0:
304,80,75630,2,0,L|212:32,1,96,8|0,0:0|0:0,0:0:0:0:
67,128,76005,2,0,B|48:156|47:191|61:219,1,96,0|8,0:0|0:0,0:0:0:0:
256,356,76380,2,0,B|275:327|275:293|262:264,1,96,0|8,0:0|0:0,0:0:0:0:
240,236,76661,1,0,0:0:0:0:
212,208,76755,6,0,B|192:180|191:145|205:116,1,96,0|8,0:0|0:0,0:0:0:0:
372,28,77130,2,0,B|391:56|392:91|378:119,1,96,8|0,0:0|0:0,0:0:0:0:
332,303,77505,2,0,L|340:208,1,96,0|8,0:0|0:0,0:0:0:0:
160,188,77880,2,0,L|246:146,1,96,0|8,0:0|0:0,0:0:0:0:
268,116,78161,1,0,0:0:0:0:
267,75,78255,6,0,B|246:41|206:27|168:39|146:64,1,144,,,0:0:0:0:
99,128,78630,2,0,B|68:142|34:138|8:120,1,96,8|0,0:0|0:0,0:0:0:0:
220,240,79005,2,0,B|215:273|195:300|167:314,1,96,0|8,0:0|0:0,0:0:0:0:
377,191,79380,2,0,B|404:211|417:242|415:273,1,96,0|8,0:0|0:0,0:0:0:0:
413,30,79755,6,0,B|444:16|477:21|503:38,1,96,0|8,0:0|0:0,0:0:0:0:
328,96,80130,2,0,L|232:84,1,96,8|0,0:0|0:0,0:0:0:0:
156,76,80411,1,0,0:0:0:0:
98,128,80505,2,0,B|78:156|79:191|96:217,1,96,0|8,0:0|0:0,0:0:0:0:
217,330,80880,2,0,B|237:302|236:267|220:240,1,96,0|8,0:0|0:0,0:0:0:0:
96,24,81255,6,0,B|68:59|69:108|98:143|135:156,1,144,,,0:0:0:0:
245,92,81630,2,0,B|220:69|185:64|157:76,1,96,8|0,0:0|0:0,0:0:0:0:
16,256,82005,2,0,B|49:263|81:250|101:225,1,96,0|8,0:0|0:0,0:0:0:0:
216,330,82380,6,0,B|238:304|242:270|232:240,1,96,0|8,0:0|0:0,0:0:0:0:
188,152,82755,1,0,0:0:0:0:
360,196,82942,1,0,0:0:0:0:
160,272,83130,2,0,L|64:264,1,96,8|0,0:0|0:0,0:0:0:0:
360,195,83505,6,0,B|378:166|380:133|368:104,1,96,0|8,0:0|0:0,0:0:0:0:
196,60,83880,2,0,B|177:88|175:123|188:152,1,96,0|8,0:0|0:0,0:0:0:0:
240,208,84161,1,0,0:0:0:0:
299,256,84255,6,0,B|275:288|232:298|196:282|176:254,1,144,0|0,0:0|0:0,0:0:0:0:
127,191,84630,2,0,B|95:178|61:186|38:208,1,96,8|0,0:0|0:0,0:0:0:0:
260,112,85005,2,0,B|266:78|292:54|323:48,1,96,8|8,0:0|0:0,0:0:0:0:
300,256,85380,2,0,L|284:356,1,96,0|8,0:0|0:0,0:0:0:0:
208,368,85661,1,0,0:0:0:0:
135,335,85755,6,0,B|102:296|104:240|136:205,1,144,4|0,0:0|0:0,0:0:0:0:
326,159,86130,2,0,B|309:207|260:233|213:224,1,144,4|0,0:0|0:0,0:0:0:0:
78,82,86505,2,0,B|128:72|176:102|191:148,1,144,4|0,0:0|0:0,0:0:0:0:
232,212,86880,2,0,B|245:243|277:260|308:256,1,96,,,0:0:0:0:
437,93,87255,6,0,B|388:79|338:109|326:157,1,144,4|0,0:0|0:0,0:0:0:0:
376,216,87630,2,0,B|391:246|387:281|368:306,1,96,8|0,0:0|0:0,0:0:0:0:
191,149,88005,2,0,B|176:119|180:84|199:59,1,96,8|8,0:0|0:0,0:0:0:0:
280,272,88380,2,0,L|204:368,1,96,0|8,0:0|0:0,0:0:0:0:
144,332,88661,1,0,0:0:0:0:
80,288,88755,6,0,B|54:239|77:180|128:160,1,144,4|0,0:0|0:0,0:0:0:0:
184,64,89130,2,0,B|239:66|278:116|270:169,1,144,4|0,0:0|0:0,0:0:0:0:
325,266,89505,2,0,B|295:312|233:321|190:288,1,144,4|0,0:0|0:0,0:0:0:0:
191,149,89880,2,0,L|276:88,1,96,0|0,0:0|0:0,0:0:0:0:
408,28,90255,6,0,B|445:67|438:129|396:160,1,144,4|0,0:0|0:0,0:0:0:0:
399,232,90630,2,0,B|365:231|338:208|329:178,1,96,8|0,0:0|0:0,0:0:0:0:
268,12,91005,2,0,L|248:106,1,96,0|8,0:0|0:0,0:0:0:0:
104,332,91380,2,0,L|123:237,1,96,0|8,0:0|0:0,0:0:0:0:
192,200,91661,1,0,0:0:0:0:
264,228,91755,6,0,B|303:261|362:253|392:213,1,144,4|0,0:0|0:0,0:0:0:0:
380,136,92130,2,0,B|341:102|282:109|251:150,1,144,4|0,0:0|0:0,0:0:0:0:
192,200,92505,2,0,B|159:240|101:244|64:212,1,144,4|0,0:0|0:0,0:0:0:0:
24,145,92880,2,0,B|21:94|57:51|104:42,1,144,4|0,0:0|0:0,0:0:0:0:
172,84,93255,1,4,0:0:0:0:
256,192,93348,12,4,96255,0:0:0:0:
